Aller au contenu
  • Pas encore inscrit ?

    Pourquoi ne pas vous inscrire ? C'est simple, rapide et gratuit.
    Pour en savoir plus, lisez Les avantages de l'inscription... et la Charte de Zébulon.
    De plus, les messages que vous postez en tant qu'invité restent invisibles tant qu'un modérateur ne les a pas validés. Inscrivez-vous, ce sera un gain de temps pour tout le monde, vous, les helpeurs et les modérateurs ! :wink:

[Résolu] Dysfonctionnement d'Exact Audio Copy


Messages recommandés

Bonjour à tous
Pour numériser mes CD (je les convertis en FLAC), j'utilise le logiciel Exact Audio Copy, qui me convient très bien (mieux que Foobar 2000 par exemple).
Cependant, il y a un problème : lors de la numérisation du premier CD après avoir ouvert le logiciel, aucun souci. Mais quand je continue avec un autre CD, la numérisation se fait beaucoup plus lentement. Tellement que je suis obligé de redémarrer le programme après chaque numérisation.
Auriez-vous une idée sur les origines de ce dysfonctionnement et sur le manière d'y remédier ?
Je vous remercie par avance de votre aide.

Modifié par JC83
Lien à poster
Partager sur d’autres sites

Bonsoir JC83,

Moi aussi j'utilise EAC pour numériser mes cd, et c'est vrai que ce petit logiciel est une merveille.

Comme toi j'avais des soucis de lenteur en ripant mes cd. Pour le premier ça se passait bien, et les choses se gâtaient ensuite.
J'ai adopté une autre méthode :
Je fais une copie virtuelle de mon cd avec Nero, que je colle ensuite sur mon lecteur C.
Je monte mon image avec Daemon Tools, et je ripe mon cd à partir de l'image en un temps record : en 40 secondes la messe est dite.

Tout bien calculé, je perds moins de temps à procéder ainsi qu'à riper directement.
Je ripe le plus souvent une dizaine de cd à la volée, je numérise avec EAC pendant que Nero me grave le cd suivant.
Pas de perte de temps ! :P

De quoi ça vient, je ne sais pas. :chpas:
Je pense que EAC charge d'abord en mémoire cache le fichier wav avant de le compresser, et qu'un lecteur dvd n'a pas le même débit qu'un SSD.

Tente cette méthode avec le chronomètre en main, et dis-moi ce que tu en penses... :sourire:

  • Like 1
Lien à poster
Partager sur d’autres sites

Merci pour ta réponse Jean-Mimi 01
Mais comme j'utilise aussi EAC pour avoir et écrire les informations du CD par l'intermédiaire des bases de données en ligne, ainsi que la pochette de l'album, est-ce que passer par cette méthode me le permettra ?

 

Lien à poster
Partager sur d’autres sites

Bien sûr, c'est exactement la même chose : ton cd virtuel est une copie tout à fait identique à l'original, et il est reconnu par les trois bases de données utilisées par EAC, quand il est connu. ;)

Un autre détail : pour optimiser au mieux les débits d'encodage et de transfert, je numérise mes flac à la racine de mon lecteur C, sous un répertoire au nom de l'album.
Ce n'est que lorsque tout est terminé que j'envoie mon album numérisé sur mon disque d'archives musique.
Et ça me permet également de lancer EAC en mode explosif, je n'ai jamais eu un souci avec le SSD.
Avec le lecteur dvd, une fois sur deux j'avais des erreurs. :x

Tu trouveras ci-dessous les réglages que j'ai configurés, si ça peut t'aider...

Exact Audio Copy V1.3 from 2. September 2016
Journal d'extraction EAC depuis 3. Mai 2020, 20:54
Popa Chubby / It's a mighty hard road
Lecteur utilisé  : DTSOFT  BDROM   Adapter: 1  ID: 1
Mode lecture   :  : Explosif
Correction offset combiné lecture/écriture :        : 0
Lecture étendue en lead-in et lead-out              : Non
Remplacer les samples manquants par du silence      : Oui
Effacer les blocs silencieux situés en début et fin : Oui
Échantillons null utilisés dans les calculs CRC     : Oui
Interface utilisée                                  : Interface native Win32 pour Win NT & 2000
Traitement des intervalles                          : Non détecté, ajouté à la piste précédente

Format de sortie utilisé :           : Encodeur défini par l'utilisateur
Débit choisi                         : 1024 kBit/s
Qualité                              : Haut
Ajouter ID3 tag                      : Non
Ligne de commande du compresseur     : C:\Program Files (x86)\Exact Audio Copy\FLAC\FLAC.EXE
Options de commande additionnelle :  : -6 -V -T "ARTIST=%artist%" -T "TITLE=%title%" -T "ALBUM=%albumtitle%" -T "DATE=%year%" -T "TRACKNUMBER=%tracknr%" -T "GENRE=%genre%" -T "COMMENT=%comment%" %source% -o %dest%


TOC du CD extrait

     Track | Démarrer | Longueur | Secteur de début | Secteur de fin
    -----------------------------------------------------------------
        1  |  0:00.00 |  2:46.53 |           0      |      12502     
        2  |  2:46.53 |  2:59.42 |       12503      |      25969     
        3  |  5:46.20 |  3:31.08 |       25970      |      41802     
        4  |  9:17.28 |  4:00.26 |       41803      |      59828     
        5  | 13:17.54 |  3:20.43 |       59829      |      74871     
        6  | 16:38.22 |  3:54.19 |       74872      |      92440     
        7  | 20:32.41 |  4:29.59 |       92441      |     112674     
        8  | 25:02.25 |  5:14.64 |      112675      |     136288     
        9  | 30:17.14 |  5:49.69 |      136289      |     162532     
       10  | 36:07.08 |  4:32.29 |      162533      |     182961     
       11  | 40:39.37 |  3:55.49 |      182962      |     200635     
       12  | 44:35.11 |  4:15.01 |      200636      |     219761     
       13  | 48:50.12 |  5:14.10 |      219762      |     243321     
       14  | 54:04.22 |  3:49.69 |      243322      |     260565     
       15  | 57:54.16 |  3:59.36 |      260566      |     278526     


Piste  1

     Nom fichier C:\Popa Chubby 2020 It's a mighty hard road\01. The flavor is in the fat.wav

     Niveau max 98.5 %
     Vitesse d'extraction 80.5 X
     Copie CRC DA90FDF6
     Copie Ok

......
......

Piste 15

     Nom fichier C:\Popa Chubby 2020 It's a mighty hard road\15. Kiss.wav

     Niveau max 97.7 %
     Vitesse d'extraction 80.1 X
     Copie CRC F30FBBAC
     Copie Ok

Pas d'erreur apparue

Fin du rapport d'état

---- CUETools DB Plugin V2.1.6

  • Like 1
Lien à poster
Partager sur d’autres sites
  • Tonton changed the title to [Résolu] Dysfonctionnement d'Exact Audio Copy

Join the conversation

You are posting as a guest. If you have an account, sign in now to post with your account.
Note: Your post will require moderator approval before it will be visible.

Invité
Répondre à ce sujet…

×   Collé en tant que texte enrichi.   Coller en tant que texte brut à la place

  Seulement 75 émoticônes maximum sont autorisées.

×   Votre lien a été automatiquement intégré.   Afficher plutôt comme un lien

×   Votre contenu précédent a été rétabli.   Vider l’éditeur

×   Vous ne pouvez pas directement coller des images. Envoyez-les depuis votre ordinateur ou insérez-les depuis une URL.

  • En ligne récemment   0 membre est en ligne

    Aucun utilisateur enregistré regarde cette page.

×
×
  • Créer...